작성일 : 17-09-13 19:24
[드라마] [한글] 쉰들러 리스트 Schindlers List 1993 1080p Bluray x265 10Bit AAC 5.1 - GetSchwifty
글쓴이 : 익명
조회 : 39  
다운로드 : [한글] 쉰들러 리스트 Schindlers List 1993 1080p Bluray x265 10Bit AAC 5.1 - GetSchwifty.torrent (29.6k)
[한글] 쉰들러 리스트 Schindlers List 1993 1080p Bluray x265 10Bit AAC 5 토렌트 torrent 무료 공짜 파일 다운로드 마그넷 주소 다시보기

Source File:

Schindlers List 1993 1080p FRA BluRay AVC DTS-HD MA 5.1 - NOGROUP 



Media Information:


Code:

General 
Complete name : Schindlers List 1993 1080p Bluray x265 10Bit AAC 5.1 - GetSchwifty.mkv 
Format : Matroska 
Format version : Version 4 / Version 2 
File size : 6.91 GiB 
Duration : 3 h 15 min 
Overall bit rate : 5 071 kb/s 
Movie name : Schindlers List 
Encoded date : UTC 2017-09-12 02:44:04 

Video 
ID : 1 
Format : HEVC 
Format/Info : High Efficiency Video Coding 
Format profile : Main [email protected]@Main 
Codec ID : V_MPEGH/ISO/HEVC 
Duration : 3 h 15 min 
Bit rate : 4 631 kb/s 
Width : 1 920 pixels 
Height : 1 040 pixels 
Display aspect ratio : 1.85:1 
Frame rate mode : Constant 
Frame rate : 23.976 (24000/1001) FPS 
Color space : YUV 
Chroma subsampling : 4:2:0 
Bit depth : 10 bits 
Bits/(Pixel*Frame) : 0.097 
Stream size : 6.31 GiB (91%) 

Audio 
ID : 2 
Format : AAC 
Format/Info : Advanced Audio Codec 
Format profile : LC 
Codec ID : A_AAC 
Duration : 3 h 15 min 
Bit rate : 369 kb/s 
Channel(s) : 6 channels 
Channel positions : Front: L C R, Side: L R, LFE 
Sampling rate : 48.0 kHz 
Frame rate : 46.875 FPS (1024 SPF) 
Compression mode : Lossy 
Delay relative to video : 9 ms 
Stream size : 515 MiB (7%) 
Title : English AAC VBR 5.1 
Language : English 
Default : Yes 
Forced : No 

“왜 나는 더 많은 유태인들을 구해내지 못하였는가?”

1939년 9월 독일군의 폴란드 점령과 함께 오스카 쉰들러는 폴란드의 크레코우로 이주해온다. 기회주의자에 호색한인 쉰들러는 전쟁중 나치와 결탁해 임금을 줄 필요가 없는 유대인을 공장의 인력으로 이용한다. 이때 만난 유대인 회계사 아이작 스턴은 쉰들러의 내면에 숨어 있던 양심을 일깨워준다. 유대인들에 대한 박해가 심해지자 쉰들러는 그들을 강제수용소에서 구해내기로 결심한다. 수용소 장교에게 뇌물을 주고 유대인들을 자신의 고향으로 옮길 계획을 세운 쉰들러는 스턴과 함께 구출할 유대인 명단을 작성한다. 
170911 170912 170913 [한글] 쉰들러 리스트 Schindlers List 1993 1080p Bluray x265 10Bit AAC 5 torrent 고화질 실시간 마그넷 보기
참고 : 현재 토셋에서는 토렌트 자료를 실제로 제공하지 않습니다. 현재 페이지는 웹하드 가입유도용 페이지입니다.

 

Total. 14,982
번호 제   목 글쓴이 날짜
13722 [SF/판타지] [한글] 소스 코드 Source.Code.2011.720p+1080p.BluRay.H2… 익명 09-13
13721 [액션] [한글] 넥스트 Next 2007 BluRay 720p DTS x264-3Li 익명 09-13
13720 [한국] 미운 오리 새끼 The Ugly Duckling.2012.720P.NonDRM [HD] 익명 09-13
13719 [액션] [한글] 데자뷰 Deja.Vu.2006.1080p.BluRay.H264.AAC-RARBG 익명 09-13
13718 [액션] [한글] 로드 오브 워 Lord.of.War.2005.1080p.BluRay.x26… 익명 09-13
13717 [스릴러] [한글] Cannibal.2013.720p.BluRay.DTS.x264-PublicHD 익명 09-13
13716 [드라마] [한글] 뷰티풀 마인드 A.Beautiful.Mind.2001.1080p.Blu… 익명 09-13
13715 [스릴러] [한글] 계부 The.Stepfather.1987.1080p.BluRay.x264.AAC-ET 익명 09-13
13714 [호러] [한글] 유목민들 Nomads.1986.720p+1080p.BluRay.H264.AAC… 익명 09-13
13713 [코미디] [한글] 프린세스 브라이드 The Princess Bride (1987)… 익명 09-13
13712 [코미디] [한글] 나의 성공의 비밀 The.Secret.of.My.Success.19… 익명 09-13
13711 [드라마] [한글] 굿바이 칠드런 Au.Revoir.Les.Enfants.1987.720p… 익명 09-13
13710 [스릴러] [한글] 에프 엑스 FX.Murder.by.Illusion.1986.720p+1080p… 익명 09-13
13709 [드라마] [한글] 쉰들러 리스트 Schindlers List 1993 1080p Blur… 익명 09-13
13708 [호러] [한글] 바바둑 The Babadook (2014)1080p.BluRay.x265.HEVC… 익명 09-13
13707 [한국] 머저리와 등신들(1995)-vhsrip 익명 09-13
13706 [액션] [한글] 프리미엄 러쉬 Premium.Rush.2012.720p.BRRip.x2… 익명 09-13
13705 [액션] [한글] 레드 던 Red.Dawn.2012.720p+1080p.BluRay.H264.AAC… 익명 09-13
13704 [SF/판타지] [한글] 호스트 The.Host.2013.1080p.BluRay.x264-SPARKS 익명 09-13
13703 [로맨스] [한글] 세이프 헤이븐 Safe.Haven.2013.1080p.BluRay.x2… 익명 09-13
13702 [드라마] [한글] 프라미스드 랜드 Promised.Land.2012.1080p.Blu… 익명 09-13
13701 [코미디] [한글] 도마단 Peking.Opera.Blues.1986.x264.AC3.2AUDIO-W 익명 09-12
13700 [드라마] [한글] 다운 바이 로우 Down.by.Law.1986.720p+1080p.Bl… 익명 09-12
13699 [호러] [한글] 캣츠 아이 Cats.Eye.1985.1080p.BluRay.x264.YIFY 익명 09-12
13698 [드라마] [한글] 조찬 클럽 The Breakfast Club (1985) (1080p BluR… 익명 09-12
13697 [액션] [한글] A-특공대 The.A-Team.2010.720p.BluRay.x264-CiNEFi 익명 09-12
13696 [스릴러] [한글] 브라질에서 온 소년 (잔혹한 음모) The.B… 익명 09-12
13695 [로맨스] [한글] 리버럴 아츠 Liberal.Arts.2012.1080p.BluRay.H26… 익명 09-12
13694 [한국] 동감 Ditto.2000.XviD.AC3.2CD-WAF 익명 09-12
13693 [스릴러] [한글] 도그빌 Dogville.2003.1080p.BluRay.x264.AAC.5.1-P… 익명 09-12
   41  42  43  44  45  46  47  48  49  50