작성일 : 17-04-27 17:24
[SF/판타지] [한글] 꼬마 유령 캐스퍼 Casper (1995) (1080p Bluray x265 HEVC 10bit AAC 5.1 Tigole)
글쓴이 : 익명
조회 : 180  
다운로드 : [한글] 꼬마 유령 캐스퍼 Casper (1995) (1080p Bluray x265 HEVC 10bit AAC 5.1 Tigole).torrent (40.3k)
[한글] 꼬마 유령 캐스퍼 Casper (1995) (1080p Bluray x265 HEVC 10bit AAC 5 토렌트 torrent 무료 공짜 파일 다운로드 마그넷 주소 다시보기

Casper 1995 in 1080p, encoded with x265 in HEVC and AAC 5.1 English, with subtitles!
Encoded using the time consuming 2 pass, 10 bit color at 2962 kbps, 
from a Blu-ray source, for the highest quality possible.

11e1bc545357536.jpg2a0575545357542.jpg954436545357544.jpgd54642545357546.jpg3b8713545357555.jpg151cea545357557.jpg

General
Format : Matroska
Format version : Version 4 / Version 2
File size : 2.39 GiB
Duration : 1 h 40 min
Overall bit rate : 3 416 kb/s
Movie name : Casper
Encoded date : UTC 2017-04-17 11:47:52
Writing application : mkvmerge v9.6.0 ('Slave To Your Mind') 64bit
Writing library : libebml v1.3.4 + libmatroska v1.4.5

Video
ID : 1
Format : HEVC
Format/Info : High Efficiency Video Coding
Format profile : Main [email protected]<script data-cfhash='f9e31' type="text/javascript">@Main
Codec ID : V_MPEGH/ISO/HEVC
Duration : 1 h 40 min
Bit rate : 2 963 kb/s
Width : 1 920 pixels
Height : 1 036 pixels
Display aspect ratio : 1.85:1
Frame rate mode : Constant
Frame rate : 23.976 (24000/1001) FPS

Audio
ID : 2
Format : AAC
Format/Info : Advanced Audio Codec
Format profile : LC
Codec ID : A_AAC
Duration : 1 h 40 min
Bit rate : 353 kb/s
Channel(s) : 6 channels
Channel positions : Front: L C R, Side: L R, LFE
Sampling rate : 48.0 kHz
Frame rate : 46.875 FPS (1024 spf)
Compression mode : Lossy
Delay relative to video : 20 ms
Stream size : 255 MiB (10%)
Language : English
Default : Yes
Forced : No

Text #14
ID : 16
Format : VobSub
Muxing mode : zlib
Codec ID : S_VOBSUB
Codec ID/Info : Picture based subtitle format used on DVDs
Duration : 1 h 39 min
Bit rate : 3 535 b/s
Count of elements : 993
Stream size : 2.51 MiB (0%)
Language : Korean
Default : No
Forced : No


170425 170426 170427 [한글] 꼬마 유령 캐스퍼 Casper (1995) (1080p Bluray x265 HEVC 10bit AAC 5 torrent 고화질 실시간 마그넷 보기
참고 : 현재 토셋에서는 토렌트 자료를 실제로 제공하지 않습니다. 현재 페이지는 웹하드 가입유도용 페이지입니다.

 

Total. 13,000
번호 제   목 글쓴이 날짜
12490 [SF/판타지] [한글] 꼬마 유령 캐스퍼 Casper (1995) (1080p Bluray… hot 익명 04-27
12489 [드라마] [한글] 코스모폴리스 Cosmopolis.2012.1080p.BrRip.x264… hot 익명 04-22
12488 [스릴러] [한글] 라르고 윈치 Largo.Winch.2008.720p+1080p.BluRay… hot 익명 04-19
12487 [드라마] [한글] 엠마뉴엘 Emmanuelle.1974.1080p.BluRay.x264-AVCH hot 익명 04-18
12486 [드라마] [한글] 굿바이 버클리 Greetings.from.Tim.Buckley.2012… hot 익명 04-18
12485 [액션] [한글] 샌 안드레아스 San.Andreas.2015.2160p.4K.BluRa… hot 익명 04-17
12484 [SF/판타지] [한글] 워터호스 The Water Horse (2007) (1080p Bluray x… hot 익명 04-16
12483 [드라마] [한글] 귀향 Volver (2006) 720p BrRip x264-XpoZ hot 익명 04-16
12482 [애니] [한글] 밤비 Bambi.1942.1080p.BluRay.x265.10bit.Eng-Ger-P… hot 익명 04-16
12481 [SF/판타지] [한글] 제5원소 The Fifth Element (1997) RM4K (1080p Blu… hot 익명 04-13
12480 [코미디] [한글] 프라이데이 Friday.1995.720p.BrRip.x264.YIFY hot 익명 04-12
12479 [드라마] [한글] 아이다호 My.Own.Private.Idaho.1991.1080p.BluRay… hot 익명 04-11
12478 [코미디] [한글] 루비 스팍스 Ruby.Sparks.2012.720p.BluRay.x264-… hot 익명 04-11
12477 [스릴러] [한글] 도그빌 Dogville.2003.HDTVRiP.720p.x264.anoXmous hot 익명 04-10
12476 [드라마] [한글] 타이타닉 Titanic (1997) (1080p Bluray x265 HEVC… hot 익명 04-09
12475 [코미디] [한글] 톰 행크스의 볼케이노 Joe.Versus.The.Volcan… hot 익명 04-05
12474 [호러] [한글] 위시마스터 Wishmaster.1997.1080p.BluRay.x264.D… hot 익명 04-05
12473 [무협] [한글] 살절 (杀绝.Soul Of The Sword.1978.BD720p) [CMCT hot 익명 04-05
12472 [액션] [한글] 파이트 클럽 10주년 리마스터 Fight Club (… hot 익명 04-04
12471 [로맨스] [한글] 사랑이 다시 올 때 Hope.Floats.1999.1080p.Blu… hot 익명 04-04
12470 [코미디] [한글] 핫 텁 타임머신 2 Hot Tub Time Machine 2 (2015… hot 익명 04-04
12469 [코미디] [한글] 쟈니 잉글리쉬 Johnny English (2003) (1080p Bl… hot 익명 04-04
12468 [드라마] [한글] 니코스트라토스, 르 펠리칸 Nicostratos.Le… hot 익명 04-03
12467 [드라마] [한글] 바운티풀 가는 길 The.Trip.to.Bountiful.1985.… hot 익명 04-03
12466 [코미디] [한글] 조한 You Dont Mess with the Zohan (2008) 1080P HE… hot 익명 04-03
12465 [액션] [한글] 킬 빌 - 2부 Kill.Bill.Vol.2.2004.11080p.BluRay.x… hot 익명 04-01
12464 [스릴러] [한글] 자칼의 날 The.Day.of.the.Jackal.1973.WEB-DL.720… hot 익명 04-01
12463 [기타] [한글] 천국의 유령 Phantom.of.the.Paradise.1974.720p+… hot 익명 04-01
12462 [액션] [한글] 대보살 고개 大菩薩峠 The.Sword.Of.Doom 196… hot 익명 04-01
12461 [스릴러] [한글] 브림스톤 Brimstone.2016.720p+1080p.BluRay.x264-… hot 익명 04-01
   11  12  13  14  15  16  17  18  19  20