작성일 : 17-04-09 03:24
[드라마] [한글] 타이타닉 Titanic (1997) (1080p Bluray x265 HEVC 10bit AAC 5.1 Tigole)
글쓴이 : 익명
조회 : 180  
다운로드 : [한글] 타이타닉 Titanic (1997) (1080p Bluray x265 HEVC 10bit AAC 5.1 Tigole).torrent (38.9k)
[한글] 타이타닉 Titanic (1997) (1080p Bluray x265 HEVC 10bit AAC 5 토렌트 torrent 무료 공짜 파일 다운로드 마그넷 주소 다시보기

Titanic 1997 in 1080p, encoded with x265 in HEVC and AAC 5.1 English, with subtitles!
Encoded using the time consuming 2 pass, 10 bit color at 3210 kbps, 
from a Blu-ray source, for the highest quality possible.

578a0b542314450.jpga99277542314452.jpg20daf8542314454.jpgca506b542314455.jpg732d50542314458.jpg690c75542314459.jpgd47fb9542314461.jpg203d3f542314466.jpg048b24542314469.jpg396969542314470.jpg95db39542314471.jpge369b3542314474.jpg

General
Format : Matroska
Format version : Version 4 / Version 2
File size : 5.22 GiB
Duration : 3 h 14 min
Overall bit rate : 3 834 kb/s
Movie name : Titanic
Encoded date : UTC 2017-04-01 01:13:22
Writing application : mkvmerge v9.6.0 (Slave To Your Mind) 64bit
Writing library : libebml v1.3.4 + libmatroska v1.4.5

Video
ID : 1
Format : HEVC
Format/Info : High Efficiency Video Coding
Format profile : Main [email protected]<script data-cfhash='f9e31' type="text/javascript">@Main
Codec ID : V_MPEGH/ISO/HEVC
Duration : 3 h 14 min
Bit rate : 3 210 kb/s
Width : 1 920 pixels
Height : 820 pixels
Display aspect ratio : 2.35:1
Frame rate mode : Constant
Frame rate : 23.976 (24000/1001) FPS

Audio #1
ID : 2
Format : AAC
Format/Info : Advanced Audio Codec
Format profile : LC
Codec ID : A_AAC
Duration : 3 h 14 min
Bit rate : 353 kb/s
Channel(s) : 6 channels
Channel positions : Front: L C R, Side: L R, LFE
Sampling rate : 48.0 kHz
Frame rate : 46.875 FPS (1024 spf)
Compression mode : Lossy
Delay relative to video : 20 ms
Stream size : 483 MiB (9%)
Language : English
Default : Yes
Forced : No

Audio #2
ID : 3
Format : AAC
Format/Info : Advanced Audio Codec
Format profile : HE-AAC / LC
Codec ID : A_AAC
Duration : 3 h 14 min
Bit rate : 66.2 kb/s
Channel(s) : 2 channels
Channel positions : Front: L R
Sampling rate : 48.0 kHz / 24.0 kHz
Frame rate : 23.438 FPS (1024 spf)
Compression mode : Lossy
Delay relative to video : 40 ms
Stream size : 91.8 MiB (2%)
Title : Commentary 1
Language : English
Default : No
Forced : No

Audio #3
ID : 4
Format : AAC
Format/Info : Advanced Audio Codec
Format profile : HE-AAC / LC
Codec ID : A_AAC
Duration : 3 h 14 min
Bit rate : 66.2 kb/s
Channel(s) : 2 channels
Channel positions : Front: L R
Sampling rate : 48.0 kHz / 24.0 kHz
Frame rate : 23.438 FPS (1024 spf)
Compression mode : Lossy
Delay relative to video : 40 ms
Stream size : 91.7 MiB (2%)
Title : Commentary 2
Language : English
Default : No
Forced : No

Audio #4
ID : 5
Format : AAC
Format/Info : Advanced Audio Codec
Format profile : HE-AAC / LC
Codec ID : A_AAC
Duration : 3 h 14 min
Bit rate : 69.7 kb/s
Channel(s) : 2 channels
Channel positions : Front: L R
Sampling rate : 48.0 kHz / 24.0 kHz
Frame rate : 23.438 FPS (1024 spf)
Compression mode : Lossy
Delay relative to video : 40 ms
Stream size : 97.2 MiB (2%)
Title : Commentary 3
Language : English
Default : No
Forced : No

부가 영상 포함

170407 170408 170409 [한글] 타이타닉 Titanic (1997) (1080p Bluray x265 HEVC 10bit AAC 5 torrent 고화질 실시간 마그넷 보기
참고 : 현재 토셋에서는 토렌트 자료를 실제로 제공하지 않습니다. 현재 페이지는 웹하드 가입유도용 페이지입니다.

 

Total. 12,502
번호 제   목 글쓴이 날짜
12502 [호러] [한글] 인간 늑대의 음모 The.Howling.The.Beasts.1981… 익명 05-12
12501 [전쟁] [한글] 독수리 착륙하다 The Eagle Has Landed (1976) … 익명 05-12
12500 [스릴러] [한글] 솔러스 Solace.2015.1080p+720p.BluRay.H264.AAC-RA… 익명 05-09
12499 [드라마] [한글] 바벨_Babel.2006.1080p.BluRay.x264.DTS-FGT 익명 05-08
12498 [SF/판타지] [한글] 카르고 (2009) Cargo.2009.GERMAN.1080p.BluRay.x26… 익명 05-08
12497 [SF/판타지] [한글] 에이리언 1~4 Alien.Anthology.1979~1997.1080p.Bl… 익명 05-08
12496 [드라마] [한글] 써드 스타 Third.Star.aka.Barafundle.Bay.2010.10… 익명 05-05
12495 [한국] 과속 스캔들 Speed.Scandal.2008.BluRay.1080p.5.1CH.x264-… 익명 05-04
12494 [스릴러] [한글] 기프트 Echelon.Conspiracy.2009.1080p.BluRay.H264… 익명 05-01
12493 [스릴러] [한글] 블랙 크리스마스 Black.Christmas.1974.REMASTE… 익명 04-30
12492 [드라마] [한글] 사형수 탈출하다 A.Man.Escaped.1956.720p.CRIT… 익명 04-29
12491 [액션] [한글] 엘도라도 El.Dorado.1966.720p+1080p.BluRay.X264-… hot 익명 04-28
12490 [SF/판타지] [한글] 꼬마 유령 캐스퍼 Casper (1995) (1080p Bluray… hot 익명 04-27
12489 [드라마] [한글] 코스모폴리스 Cosmopolis.2012.1080p.BrRip.x264… 익명 04-22
12488 [스릴러] [한글] 라르고 윈치 Largo.Winch.2008.720p+1080p.BluRay… 익명 04-19
12487 [드라마] [한글] 엠마뉴엘 Emmanuelle.1974.1080p.BluRay.x264-AVCH 익명 04-18
12486 [드라마] [한글] 굿바이 버클리 Greetings.from.Tim.Buckley.2012… 익명 04-18
12485 [액션] [한글] 샌 안드레아스 San.Andreas.2015.2160p.4K.BluRa… 익명 04-17
12484 [SF/판타지] [한글] 워터호스 The Water Horse (2007) (1080p Bluray x… 익명 04-16
12483 [드라마] [한글] 귀향 Volver (2006) 720p BrRip x264-XpoZ 익명 04-16
12482 [애니] [한글] 밤비 Bambi.1942.1080p.BluRay.x265.10bit.Eng-Ger-P… 익명 04-16
12481 [SF/판타지] [한글] 제5원소 The Fifth Element (1997) RM4K (1080p Blu… hot 익명 04-13
12480 [코미디] [한글] 프라이데이 Friday.1995.720p.BrRip.x264.YIFY hot 익명 04-12
12479 [드라마] [한글] 아이다호 My.Own.Private.Idaho.1991.1080p.BluRay… hot 익명 04-11
12478 [코미디] [한글] 루비 스팍스 Ruby.Sparks.2012.720p.BluRay.x264-… hot 익명 04-11
12477 [스릴러] [한글] 도그빌 Dogville.2003.HDTVRiP.720p.x264.anoXmous hot 익명 04-10
12476 [드라마] [한글] 타이타닉 Titanic (1997) (1080p Bluray x265 HEVC… hot 익명 04-09
12475 [코미디] [한글] 톰 행크스의 볼케이노 Joe.Versus.The.Volcan… hot 익명 04-05
12474 [호러] [한글] 위시마스터 Wishmaster.1997.1080p.BluRay.x264.D… 익명 04-05
12473 [무협] [한글] 살절 (杀绝.Soul Of The Sword.1978.BD720p) [CMCT hot 익명 04-05
 1  2  3  4  5  6  7  8  9  10