작성일 : 17-02-13 19:24
[영화] [무자막] 워킹 위드 디노사우르스 3D Walking With Dinosaurs 3D (2013)[BRRip.1080p.x265-HEVC.AC3/DTS]
글쓴이 : 익명
조회 : 477  
다운로드 : [무자막] 워킹 위드 디노사우르스 3D Walking With Dinosaurs 3D (2013)[BRRip.1080p.x265-HEVC.AC3/DTS].torrent (45.3k)
[무자막] 워킹 위드 디노사우르스 3D Walking With Dinosaurs 3D (2013)[BRRip 토렌트 torrent 무료 공짜 파일 다운로드 마그넷 주소 다시보기


http://www.filmweb.pl/film/W%C4%99dr%C3%B3wki+z+dinozaurami+3D-2013-604471
http://www.imdb.com/title/tt1762399/

Film w wersji 3D Half-Over/Under.

Film w formacie x265 HEVC, zalecam odtworzyć
ten film komputerem, łącząc kablem HDMI z TV.
Polecam KM-Player oraz VLC Player x265.


reżyseria: Barry Cook, Neil Nightingale
scenariusz: John Collee
gatunek: Animacja,Familijny,Przygodowy
produkcja: Australia,Indie,USA,Wielka Brytania
premiera: 14-12-2013
muzyka:         Paul Leonard-Morgan
zdjęcia:        John Brooks
czas:           01:27:26

opis:

See and feel what it was like when dinosaurs ruled the Earth, in a story where an underdog
dino triumphs to become a hero for the ages.

Kinowa wersja słynnego serialu BBC o prehistorycznych gadach, zrealizowana w cyfrowym 3D.






obsada:

Charlie Rowe, Karl Urban, Angourie Rice

dane techniczne:

Walking With Dinosaurs 3D (2013)-alE13.mkv
Format                      : Matroska
Format version              : Version 4 / Version 2
File size                   : 3.10 GiB
Duration                    : 1h 27mn
Overall bit rate            : 5 080 Kbps
Movie name                  : Walking With Dinosaurs (2013)-alE13
Encoded date                : UTC 2015-03-15 16:21:44
Writing application         : mkvmerge v7.7.0
Writing library             : libebml v1.3.1 + libmatroska v1.4.2
DURATION                    : 01:19:54.365000000
NUMBER_OF_FRAMES            : 1391
NUMBER_OF_BYTES             : 7518574
_STATISTICS_WRITING_APP     : mkvmerge v7.7.0
_STATISTICS_WRITING_DATE_UT : 2015-03-15 16:21:44
_STATISTICS_TAGS            : BPS DURATION NUMBER_OF_FRAMES NUMBER_OF_BYTES

Video
ID                          : 1
Format                      : HEVC
Format/Info                 : High Efficiency Video Coding
Format profile              : Main@L4.0
Codec ID                    : V_MPEGH/ISO/HEVC
Duration                    : 1h 27mn
Bit rate                    : 3 214 Kbps
Width                       : 1 920 pixels
Height                      : 1 080 pixels
Display aspect ratio        : 16:9
Frame rate mode             : Constant
Frame rate                  : 23.976 fps
Color space                 : YUV
Chroma subsampling          : 4:2:0
Bit depth                   : 8 bits
Bits/(Pixel*Frame)          : 0.065
Stream size                 : 1.96 GiB (63%)
Title                       : Walking With Dinosaurs 3D (2013)-alE13
Default                     : Yes
Forced                      : No
DURATION                    : 01:27:23.474000000
NUMBER_OF_FRAMES            : 491542
NUMBER_OF_BYTES             : 988982504
_STATISTICS_WRITING_APP     : mkvmerge v7.7.0
_STATISTICS_WRITING_DATE_UT : 2015-03-15 16:21:44
_STATISTICS_TAGS            : BPS DURATION NUMBER_OF_FRAMES NUMBER_OF_BYTES

Audio #1
ID                          : 2
Format                      : DTS
Format/Info                 : Digital Theater Systems
Mode                        : 16
Format settings, Endianness : Big
Codec ID                    : A_DTS
Duration                    : 1h 27mn
Bit rate mode               : Constant
Bit rate                    : 1 509 Kbps
Channel(s)                  : 6 channels
Channel positions           : Front: L C R, Side: L R, LFE
Sampling rate               : 48.0 KHz
Bit depth                   : 24 bits
Compression mode            : Lossy
Stream size                 : 944 MiB (30%)
Title                       : Walking With Dinosaurs 3D (2013)-alE13
Language                    : English
Default                     : No
Forced                      : No

Audio #2
ID                          : 3
Format                      : AC-3
Format/Info                 : Audio Coding 3
Mode extension              : CM (complete main)
Format settings, Endianness : Big
Codec ID                    : A_AC3
Duration                    : 1h 27mn
Bit rate mode               : Constant
Bit rate                    : 256 Kbps
Channel(s)                  : 2 channels
Channel positions           : Front: L R
Sampling rate               : 48.0 KHz
Bit depth                   : 16 bits
Compression mode            : Lossy
Delay relative to video     : 454ms
Stream size                 : 160 MiB (5%)
Title                       : Walking With Dinosaurs 3D (2013)-alE13
Language                    : Polish
Default                     : Yes
Forced                      : No

Text
ID                          : 4
Format                      : VobSub
Muxing mode                 : zlib
Codec ID                    : S_VOBSUB
Codec ID/Info               : The same subtitle format used on DVDs
Title                       : Walking With Dinosaurs 3D (2013)-alE13
Language                    : Polish
Default                     : Yes
Forced                      : No
170211 170212 170213 [무자막] 워킹 위드 디노사우르스 3D Walking With Dinosaurs 3D (2013)[BRRip torrent 고화질 실시간 마그넷 보기
참고 : 현재 토셋에서는 토렌트 자료를 실제로 제공하지 않습니다. 현재 페이지는 웹하드 가입유도용 페이지입니다.

 

Total. 19,234
번호 제   목 글쓴이 날짜
16894 [다큐] 해양 다큐 Shark.Adventures.In.Thailand.2012.1080p.3D.Blu… hot 익명 02-13
16893 [다큐] 그랜드캐년 다큐 World.Natural.Heritage.USA.Grand.Cany… hot 익명 02-13
16892 [다큐] 옐로우스톤 다큐입니다 World.Natural.Heritage.USA.Y… hot 익명 02-13
16891 [영화] [무자막] 비독 3D Vidocq 3D(OU) *2001* [1080p.Half.Over-… hot 익명 02-13
16890 [애니] [무자막] 더북오브라이프 The Book of Life *2014* [m… hot 익명 02-13
16889 [영화] [무자막] 워킹 위드 디노사우르스 3D Walking With… hot 익명 02-13
16888 [영화] 블랙앤화이트2 Black & White The Dawn of Justice 2014 1… hot 익명 02-13
16887 [애니] [무자막] 빨간모자의진실2 Hoodwinked Too! Hood vs. … hot 익명 02-13
16886 [영화] [무자막] 레비토호라3D Rabitto hora 3D (2011)[BRRip.1… hot 익명 02-13
16885 [영화] [무자막] Toxin 3D (2014)[BRRip.1080p.x265.HEVC.H-OU.DTS-M… hot 익명 02-13
16884 [영화] [무자막] 스텝업:올인 Step Up All In 3D 2014 iTALiAN … hot 익명 02-13
16883 [애니] [무자막] Boxtrolls 3D 2014 DTS ITA ENG Half SBS 1080p Blu… hot 익명 02-13
16882 [다큐] 샤크스 Sharks 3D (2004)[BRRip.1080p.x264.AC3][Lektor PL][… hot 익명 02-13
16881 [영화] [무자막] 사대명포 3 : 종극대결전 The Four 3 2014… hot 익명 02-13
16880 [영화] [무자막] 텍사스 전기톱 대학살 Texas Chainsaw 3D … hot 익명 02-13
16879 [영화] 점박이 :한반도의 공룡 The Dino King 3D 2011 [mini-H… hot 익명 02-13
16878 [영화] 점박이: 한반도의 공룡 3D The Dino King 3D (2011)[BR… hot 익명 02-13
16877 [다큐] 남극의 눈물 3D (2012)[BRRip.1080p.x264.H/SBS.DTS][Napis… hot 익명 02-13
16876 [영화] Kiss Me, Kate 3D (1953)[BRRip.1080p.x264.3D H/OU-DTS/AC3][Le… hot 익명 02-13
16875 [영화] [무자막] Rise of the Legend 3D *2014* [mini-HD.1080p.Half… hot 익명 02-13
16874 [다큐] 아이맥스 Galapagos-The Enchanted Voyage 3D (1999)[BRRip.… hot 익명 02-13
16873 [영화] [무] 페러그린과 이상한 아이들의 집 Miss.Peregr… hot 익명 01-22
16872 [영화] [더빙/자막] 아기배달부 스토크 Storks 2016 1080p … hot 익명 01-19
16871 [영화] [무] 인디펜던스 데이: 리써전스 Independence.Day.… hot 익명 01-19
16870 [영화] [무] 고스트버스터즈 Ghostbusters.2016.1080p.3D.BluRa… hot 익명 01-19
16869 [영화] [무] 인터스텔라: 우주 전쟁 Interstellar.Wars.2016.… hot 익명 01-16
16868 [영화] [무] 수어사이드 스쿼드 Suicide.Squad.2016.THEATRICA… hot 익명 01-16
16867 [애니] [무] 아기배달부 스토크 Storks.2016.1080p.3D.BluRay.… hot 익명 01-16
16866 [영화] [무] 카니지 파크 Carnage.Park.2016.3D.1080p.BluRay.x26… hot 익명 01-16
16865 [애니] [무[ 로빈슨 크루소 Robinson.Crusoe.2016.3D.1080p.BluR… hot 익명 01-02
   71  72  73  74  75  76  77  78  79  80